نمایش نتایج: از 1 به 8 از 8

موضوع: دانلود فیلم ماجرای شب ژانویه 1347 - نسخه تله 35 کیفیت بالا

  1. #1
    کاربر جدید
    تاریخ عضویت
    Jul 2017
    نوشته ها
    8
    تشکر
    59
    تشکر شده : 149

    دانلود فیلم ماجرای شب ژانویه 1347 - نسخه تله 35 کیفیت بالا

    ماجرای شب ژانویه - 1347 - نسخه تله 35



    [فقط کسانی که در سایت عضو شده اند قادر به مشاهده لینک ها هستند عضویت در سایت کمتر از 1 دقیقه ست. برای عضو شدن در سایت کلیک کنید...]
    [فقط کسانی که در سایت عضو شده اند قادر به مشاهده لینک ها هستند عضویت در سایت کمتر از 1 دقیقه ست. برای عضو شدن در سایت کلیک کنید...][فقط کسانی که در سایت عضو شده اند قادر به مشاهده لینک ها هستند عضویت در سایت کمتر از 1 دقیقه ست. برای عضو شدن در سایت کلیک کنید...][فقط کسانی که در سایت عضو شده اند قادر به مشاهده لینک ها هستند عضویت در سایت کمتر از 1 دقیقه ست. برای عضو شدن در سایت کلیک کنید...][فقط کسانی که در سایت عضو شده اند قادر به مشاهده لینک ها هستند عضویت در سایت کمتر از 1 دقیقه ست. برای عضو شدن در سایت کلیک کنید...][فقط کسانی که در سایت عضو شده اند قادر به مشاهده لینک ها هستند عضویت در سایت کمتر از 1 دقیقه ست. برای عضو شدن در سایت کلیک کنید...]


    [فقط کسانی که در سایت عضو شده اند قادر به مشاهده لینک ها هستند عضویت در سایت کمتر از 1 دقیقه ست. برای عضو شدن در سایت کلیک کنید...]

    کد:
    Format : Matroska Format version : Version 4 / Version 2 File size : 1.73 GiB Duration : 1 h 48 min Overall bit rate : 2 285 kb/s Encoded date : UTC 2018-10-02 16:43:29 Writing application : mkvmerge v25.0.0 ('Prog Noir') 64-bit Writing library : libebml v1.3.6 + libmatroska v1.4.9 Video ID : 1 Format : AVC Format/Info : Advanced Video Codec Format profile : High@L4.1 Format settings : CABAC / 4 Ref Frames Format settings, CABAC : Yes Format settings, ReFrames : 4 frames Codec ID : V_MPEG4/ISO/AVC Duration : 1 h 48 min Bit rate : 2 118 kb/s Width : 720 pixels Height : 576 pixels Display aspect ratio : 4:3 Frame rate mode : Constant Frame rate : 25.000 FPS Standard : PAL Color space : YUV Chroma subsampling : 4:2:0 Bit depth : 8 bits Scan type : Progressive Bits/(Pixel*Frame) : 0.204 Stream size : 1.61 GiB (93%) Writing library : x264 core 142 r2479 dd79a61 Default : Yes Forced : No Color range : Limited Color primaries : BT.601 PAL Transfer characteristics : BT.709 Matrix coefficients : BT.601 Audio ID : 2 Format : AAC Format/Info : Advanced Audio Codec Format profile : LC Codec ID : A_AAC-2 Duration : 1 h 48 min Bit rate : 160 kb/s Channel(s) : 2 channels Channel positions : Front: L R Sampling rate : 48.0 kHz Frame rate : 46.875 FPS (1024 SPF) Compression mode : Lossy Delay relative to video : -21 ms Stream size : 124 MiB (7%) Language : Persian Default : Yes Forced : No
    حجم دانلود : 1.73GB


    لینک دانلود...

    [فقط کسانی که در سایت عضو شده اند قادر به مشاهده لینک ها هستند عضویت در سایت کمتر از 1 دقیقه ست. برای عضو شدن در سایت کلیک کنید...]
    [فقط کسانی که در سایت عضو شده اند قادر به مشاهده لینک ها هستند عضویت در سایت کمتر از 1 دقیقه ست. برای عضو شدن در سایت کلیک کنید...]
    [فقط کسانی که در سایت عضو شده اند قادر به مشاهده لینک ها هستند عضویت در سایت کمتر از 1 دقیقه ست. برای عضو شدن در سایت کلیک کنید...]
    [فقط کسانی که در سایت عضو شده اند قادر به مشاهده لینک ها هستند عضویت در سایت کمتر از 1 دقیقه ست. برای عضو شدن در سایت کلیک کنید...]

    رمز دانلود : saamnc

    تمام پارتها رو دانلود کنید و با برنامه winrar یکپارچه کنید.






  2. #2
    کاربر جدید
    تاریخ عضویت
    May 2014
    نوشته ها
    270
    تشکر
    7,437
    تشکر شده : 1,735
    دوست عزیز واقعا" دمت گرم خیلی آقایی.
    دنیای این روزای من در گیر تنهایی شده

    تنها مدارا می کنیم دنیا عجب جایی شده

  3. 5 کاربر مقابل از Amir.H عزیز به خاطر این پست مفید تشکر کرده اند .


  4. #3
    نیمه فعال
    تاریخ عضویت
    Aug 2014
    نوشته ها
    1,733
    تشکر
    6,094
    تشکر شده : 6,551

  5. 4 کاربر مقابل از ghasemshah عزیز به خاطر این پست مفید تشکر کرده اند .


  6. #4
    کاربر جدید
    تاریخ عضویت
    Apr 2015
    نوشته ها
    8
    تشکر
    0
    تشکر شده : 14
    تشکر داداش

  7. 4 کاربر مقابل از masoud754 عزیز به خاطر این پست مفید تشکر کرده اند .


  8. #5
    فعال
    تاریخ عضویت
    Dec 2016
    نوشته ها
    4,562
    تشکر
    2,316
    تشکر شده : 5,201
    دمتگرم

  9. 4 کاربر مقابل از blac عزیز به خاطر این پست مفید تشکر کرده اند .


  10. #6
    فعال
    تاریخ عضویت
    Mar 2017
    نوشته ها
    5,901
    تشکر
    4,729
    تشکر شده : 9,430
    مرسی دوست عزیز، عالی بود
    تمامِ تو سهمِ منه | به کم قانعم نکن

  11. 4 کاربر مقابل از KamkarDel عزیز به خاطر این پست مفید تشکر کرده اند .


  12. #7
    فعال
    تاریخ عضویت
    Apr 2015
    نوشته ها
    7,448
    تشکر
    23,311
    تشکر شده : 10,101
    [فقط کسانی که در سایت عضو شده اند قادر به مشاهده لینک ها هستند عضویت در سایت کمتر از 1 دقیقه ست. برای عضو شدن در سایت کلیک کنید...]

  13. 3 کاربر مقابل از sadegh1 عزیز به خاطر این پست مفید تشکر کرده اند .


  14. #8
    کاربر جدید
    تاریخ عضویت
    Dec 2011
    نوشته ها
    602
    تشکر
    6,799
    تشکر شده : 7,989

  15. 3 کاربر مقابل از johnny عزیز به خاطر این پست مفید تشکر کرده اند .


اطلاعات موضوع

کاربرانی که در حال مشاهده این موضوع هستند

در حال حاضر 1 کاربر در حال مشاهده این موضوع است. (0 کاربران و 1 مهمان ها)

مجوز های ارسال و ویرایش

  • شما نمیتوانید موضوع جدیدی ارسال کنید
  • شما امکان ارسال پاسخ را ندارید
  • شما نمیتوانید فایل پیوست کنید.
  • شما نمیتوانید پست های خود را ویرایش کنید
  •